Воскресенье, 22.09.2019, 22:02

 
Меню сайта

Нормативная документация

Статистика

Онлайн всего: 1
Гостей: 1
Пользователей: 0

Главная » 2014 » Апрель » 18 » Скачать Чемпионат России 2013-2014
03:18
Скачать Чемпионат России 2013-2014

Чемпионат России 2013-2014 скачать

Чемпионат России по футболу ...

Скачать

Размер: 3.6 ГБ
Сидов: 0
Личей: неизвестно
Добавлен в базу: неизвестно
Файлы в архиве: Чемпионат.России2013-2014.21тур.ЦСКА_vs_Зенит_GreyKG_HDTV.ts

Чемпионат России 2013-2014 / 21-й тур / ЦСКА (Москва) - Зенит (Санкт-Петербург)
Вид спорта: Футбол
Дата/Год выпуска: 15.03.2014
Язык комментариев: Португальский
Автор рипа: GreyKG
Описание: Химки (Россия). Стадион Арена Химки. 21-й тур 15 марта 2014 года, суббота. 16:00 мск Главный судья: Михаил Вилков (Нижний Новгород, Россия) Матч 1 (18.10.2013) - 0:2.
Качество: HDTV
Формат: TS
Видео кодек: AVC
Аудио кодек: MP2
Видео: H.264 (High@L4.0); 1440x1080 (16:9); 25.000 fps; ~5000 kbps
Аудио: 48000 Hz; 128 kbps; Stereo; 2 channels MediaInfo General
ID : 104 (0x68)
Format : MPEG-TS
File size : 3.60 GiB
Duration : 1h 42mn
Overall bit rate mode : Variable
Overall bit rate : 5 052 Kbps
Video
ID : 6449 (0x1931)
Menu ID : 1403 (0x57B)
Format : AVC
Format/Info : Advanced Video Codec
Format profile : Main@L4.0
Format settings, CABAC : Yes
Format settings, ReFrames : 4 frames
Codec ID : 27
Duration : 1h 42mn
Bit rate : 4 673 Kbps
Width : 1 440 pixels
Height : 1 080 pixels
Display aspect ratio : 16:9
Frame rate : 25.000 fps
Standard : Component
Color space : YUV
Chroma subsampling : 4:2:0
Bit depth : 8 bits
Scan type : Interlaced
Scan order : Top Field First
Bits/(Pixel*Frame) : 0.120
Stream size : 3.33 GiB (92%)
Color primaries : BT.709
Transfer characteristics : BT.709
Matrix coefficients : BT.709
Audio
ID : 6450 (0x1932)
Menu ID : 1403 (0x57B)
Format : MPEG Audio
Format version : Version 1
Format profile : Layer 2
Codec ID : 4
Duration : 1h 42mn
Bit rate mode : Constant
Bit rate : 128 Kbps
Channel(s) : 2 channels
Sampling rate : 48.0 KHz
Compression mode : Lossy
Delay relative to video : 304ms
Stream size : 93.5 MiB (3%) Продолжительность 01:42:06 Составы Счёт >>1:0<<

Скачать файл через файлообменник: Скачать

Скачать через торрент: Скачать торрент

Тэги: Soccer.ru - Футбол, чемпионат России, Футбол России - Чемпионат, Чемпионат России среди команд, Чемпионат России по футболу 2013, Чемпионат России по футболу 2013, Чемпионат России по футболу 2013, Чемпионат России по футболу., Чемпионат России по футболу, Футбол России. Чемпионат России, Календарь чемпионата россии по

Просмотров: 73 | Добавил: korneevany2008 | Рейтинг: 0.0/0
Всего комментариев: 0
Имя *:
Email *:
Код *:
Олимпийские игры

Паралимпийские игры

Форма входа

Поиск

Календарь
«  Апрель 2014  »
ПнВтСрЧтПтСбВс
 123456
78910111213
14151617181920
21222324252627
282930

Блог создан заместителем директора по УР Терлеевой Надеждой Юрьевной